The Chronicles of Narnia - The Voyage of the Dawn Treader - hollywood movie



The Chronicles of Narnia - The Voyage of the Dawn Treader

Release Notes: Video SERENITY

Audio:IMAGINE thanks to both

Video source was great sharpened it up a bit brightened a bit resized not to much,Audio i just muxed to ac3 and put back on our encode all in all very watchable enjoy.



Video: ID : 0
Format : MPEG-4 Visual
Format profile : Advanced Simple@L5
Format settings, BVOP : Yes
Format settings, QPel : No
Format settings, GMC : No warppoints
Format settings, Matrix : Default (H.263)
Codec ID : XVID
Codec ID/Hint : XviD
Duration : 1h 45mn
Bit rate : 1 199 Kbps
Width : 672 pixels
Height : 320 pixels
Display aspect ratio : 2.100
Frame rate : 25.000 fps
Color space : YUV
Chroma subsampling : 4:2:0
Bit depth : 8 bits
Scan type : Progressive
Bits/(Pixel*Frame) : 0.223
Stream size : 904 MiB (75%)
Writing library : XviD 1.2.1 (UTC 2008-12-04)


Audio: ID : 1
Format : AC-3
Format/Info : Audio Coding 3
Mode extension : CM (complete main)
Codec ID : 2000
Duration : 1h 45mn
Bit rate mode : Constant
Bit rate : 384 Kbps
Channel(s) : 6 channels
Channel positions : Front: L C R, Side: L R, LFE
Sampling rate : 44.1 KHz
Bit depth : 16 bits
Stream size : 289 MiB (24%)
Alignment : Aligned on interleaves
Interleave, duration : 35 ms (0.87 video frame)


Duration:1:45

Release Date:2010

0 comments:

Post a Comment

Downloaded any game from this site?

Follow US

Labels

Pc Games xbox360 Hollywood Movie Bollywood Movie download free download PC Software full direct fast server full version game Avatar The Game - RELOADED - Pc Game Full Download Hindi fast free download movies ps3 torrent - Bollywood Movie - Pc Game Full Download Alpha Protocol PC cheat computer hd nvidia review server unlimited (2010) 2 2010 256 mb Assasin's Creed-2 Assassins Creed: Brotherhood Band Baaja Baaraat Batman Arkham Asylum Battlefield Bad Company 2 Call of Duty: Black Ops - Xbox 360 Call of duty 4 Modern Warfare Darksiders F.E.A.R 2-Project Origin FIFA.11 - RELOADED - Pc Game Full Download Fallout: New Vegas Game of Death 2010 - Hollywood Movie HALO REACH James Bond 007: Blood Stone Just Cause 2-RELOADED Legend of the Guardians (2010) DVDRip XviD-MAX MAFiA 2 Metro 2033 Need For Speed: Hot Pursuit Need for speed hot pursuit - Pc Game Full Download No Problem PC NBA 2K11 Full Rip -TPTB PC_Tom.Clancy\'s.Splinter.Cell.Conviction.Full-Rip.-TPTB Prison Tycoon 3 Lockdown Resident evil afterlife hindi by TheAaax9 Rip S60v3 Section 8 Soon Spider-Man Shattered Dimensions - Pc Game Full Download Split Second: Velocity StarCraft II: Wings of Liberty TPTB Tangled movie Test Drive Unlimited [PAL] - XBOX 360 The Sims 3 Late Night-RELOADED Transformers: War for Cybertron Tron Evolution Two Worlds II Unstoppable 2010 [2010] [PC ~ Multi5] Borderlands ati bayonetta download bond dead rising 2 pc game dwonload ea earn online film football manager 2011 forex forex game load monopoly online radion rakta charitra ram wallpaper

partners link

Check PageRank Msn bot last visit powered by MyPagerank.Net Yahoo bot last visit powered by MyPagerank.Net Entertainment blogs Visit blogadda.com to discover Indian blogs Games Blogs Games blog Pc & Xbox360 Color-Games le-denicheur 4function sarkarinaukri Download Games building games downloaditfree Fun Games Mobster RPG Mafia RPG 4x4 Game Hot Rod Game Biker RPG Fallout RPG MOBILE DOWNLOAD
Twitter Delicious Facebook Digg Stumbleupon Favorites More

 
DISCLAIMER
nexfendownload- Freeware Games only provides those games link that are either freeware or a demo version or hosted by other public sites, this blog host no links. The information in respect of games are gathered from all over the Internet in efforts to put it in more informative way. But still anything effect your copyrights or any other issue you can contact at pilu.hot@hotmail.com