Rakta Charitra - 2 (2010) Hindi - Bollywood Movie



Rakta Charitra - 2 (2010) Hindi SCAM DVDr [RxV]

Cast: Vivek Oberoi, Surya, Shatrughan Sinha, Priyamani, Radhika Apte, Sudip, Subhalekha Sudhakar and others.
Genre: Action
Music: Mani Sharma
Producer: Madhu Mantena, Sheetal Vinod Talwar
iner:
Story - Screenplay - Direction: Ram Gopal Varma
Release Date: 03/12/2010
Con t
aMKV
Rip Size: 500 MB
esolution: 720 x 480
RRun Time: 2h 02m 01s
ideo Codec: X264 @ 398 Kbps
VFrame Rate: 23.976

Band Baaja Baaraat (2010) Hindi - Bollywood Movie



Band Baaja Baaraat (2010) Hindi - Bollywood Movie

Genre............: Social / Drama
Distributor......: Yash Raj Films
Year.............: 2010
Cast.............: Ranveer Singh, Shatrughan Sinha , Anushka Sharma. ,Manmeet Singh
Source...........: ICtv
Format ..........: AVI
Size.............: 700
RUn time......... 2 hours 08 mins
FPS......... ...........25.000
Video Bitrate.......... 520 kb/sec

No Problem [2010] Hindi DVDScr XviD AC3 - Bollywood Movie

ImageShack, share photos, pictures, free image hosting, free video hosting, image hosting, video hosting, photo image hosting site, video hosting site


No Problem [2010] Hindi DVDScr XviD AC3 - Bollywood Movie


General :
Complete Name                    : No Problem [2010] - DVDScr - XviD - AC3 - [MDG]
Format                           : AVI
File size                        : 1.36 GiB
Duration                         : 2h 5mn 54s
Overall bit rate                 : 1 550 Kbps

Video :
Codec ID                         : XviD
Duration                         : 2h 5mn 54s
Bit rate                         : 1 353 Kbps
Width                            : 720 pixels
Height                           : 256 pixels
Display aspect ratio             : 2.813
Frame rate                       : 23.976 fps

Audio :
Codec ID                         : AC3
Duration                         : 2h 5mn 54s
Bit rate mode                    : Constant
Bit rate                         : 192 Kbps
Channel(s)                       : 2 channels
Channel positions                : L R
Sampling rate                    : 48.0 KHz

Game of Death 2010 - Hollywood Movie


Game of Death (2010) DVDSCR XviD-NYDIC
AVI | English | 1h 22min | 720x304
XviD - 1062kbps | MP3 - 128kbps | 707 MB
Genre: Action | Adventure
IMDB Info
Secret Ops agent Marcus is sent to Detroit to take out an arms dealer and the head of the hedge fund that is

financing him. His CIA backup has other plans and turns on him and it's a fight to survive in a hospital.

Game of Death 2010 DVDSCr XviD-NYDIC Torrent Free Download

Legend of the Guardians (2010) DVDRip XviD- Hollywood Movie



Format                           : AVI
Format/Info                      : Audio Video Interleave
Format profile                   : OpenDML
File size                        : 1.23 GiB
Duration                         : 1h 36mn
Overall bit rate                 : 1 816 Kbps
Writing application              : VirtualDubMod 1.5.10.2 (build 2542/release)
Writing library                  : VirtualDubMod build 2542/release
Original source form             : MAX TORRENTZ
Copyright                        : SIGISMUNT

Video
ID                               : 0
Format                           : MPEG-4 Visual
Format profile                   : AdvancedSimple@L5
Format settings, BVOP            : Yes
Format settings, QPel            : No
Format settings, GMC             : No warppoints
Format settings, Matrix          : Custom
Codec ID                         : XVID
Codec ID/Hint                    : XviD
Duration                         : 1h 36mn
Bit rate                         : 1 619 Kbps
Width                            : 720 pixels
Height                           : 304 pixels
Display aspect ratio             : 2.35:1
Frame rate                       : 23.976 fps
Resolution                       : 24 bits
Colorimetry                      : 4:2:0
Scan type                        : Progressive
Bits/(Pixel*Frame)               : 0.308
Stream size                      : 1.09 GiB (89%)
Writing library                  : XviD 1.2.1 (UTC 2008-12-04)

Audio
ID                               : 1
Format                           : AC-3
Format/Info                      : Audio Coding 3
Codec ID                         : 2000
Duration                         : 1h 36mn
Bit rate mode                    : Constant
Bit rate                         : 192 Kbps
Channel(s)                       : 2 channels
Channel positions                : L R
Sampling rate                    : 48.0 KHz
Stream size                      : 133 MiB (11%)
Alignment                        : Aligned on interleaves
Interleave, duration             : 64 ms (1.53 video frames)
Interleave, preload duration     : 192 ms

Avatar The Game - RELOADED - Pc Game Full Download



Avatar The Game - RELOADED - Pc Game Full Download

James Cameron’s Avatar: The Game is the official video game based on the highly anticipated film James Cameron’s Avatar. The video game will take you deep into the heart of Pandora, an alien planet that is beyond imagination. Gamers will encounter the Na’vi, Pandora’s indigenous people and discover other life forms the likes of which have never been seen in the world of video games before. When conflict erupts between the RDA Corporation, a space-faring consortium in search of valuable resources, and the Na’vi, gamers will find themselves thrust into a fight for the heart of a planet and the fate of a civilization.

Immerse yourself in James Cameron’s world.
Peer deep into the heart of Pandora and see James Cameron’s universe, from your own perspective.

Engage in a massive conflict between two worlds.
Fight for you cause; RDA or Na’vi. Customize more than 60 RDA and Na’vi weapons, combined. Choose your skills: 20 for each clan. Drive all of the vehicles and ride the animals. Expand the battleground in online multiplayer.

Develop your character and acquire new skills
Create your very own character and acquire skills as you progress through the game.

system requirements:
Core 2 Duo 2.4 GHz, 2 GB RAM, graphic card 512 MB (GeForce 6800 or better), 4 GB HDD, Windows XP/Vista/7.

NBA 2K11 Full Rip -TPTB - Pc Game Full Download



PC NBA 2K11 Full Rip -TPTB

NBA 2K11 is the latest installment in the best selling, and highest rated NBA video game series. It is the best way to plug into NBA culture. It’s the most fun, authentic NBA video game experience and is for any sports fan with that competitive fire who wants to play the best NBA simulation on the market. It’s the NBA series that everyone is playing – from the most elite NBA athletes and superstars to the local court gym rats. it delivered on its promise to TAKE OVER, and it will on build on that momentum by dialing up all of its features – gameplay, AI, presentation, visuals, audio, online and more – to deliver the best basketball videogame experience EVER.

NBA 2K11 system requirements:
Pentium IV 2.2 GHz, 512 MB RAM, graphic card 256 MB (GeForce 9500 or better), 11 GB HDD, Windows XP/Vista/7.

FIFA 11 - RELOADED - Pc Game Full Download




FIFA 11 - RELOADED - Pc Game Full Download

FIFA 11 reinvents player authenticity – on and off the ball – for every player and at every position on the pitch with Personality+, an all-new feature that sees individual abilities reflected in game, enabling clear differentiation for every player.

With Personality+ a footballer’s abilities on the pitch is mirrored authentically in game, creating individual personalities. Players will be distinguished from one another through a sophisticated database that evaluates and grades each player’s skill-set over 36 attributes and 57 traits, compiled by 1700 scouts around the world. Real Madrid’s Kaka will deliver crisp, creative passes, Barcelona’s Andres Iniesta will utilize tighter turns and close control to dribble through defenses, Manchester United’s Wayne Rooney will hold off defenders and strike shots from distance with pace, and top-flight defenders like Giorgio Chiellini of Juventus will anticipate, predict and react to offensive players to win back possession.

In Fifa 11 Goalkeepers have also been injected with Personality+. The real-life personality of the keeper, whether acrobatic or traditional, will dictate his style in game. Dive attributes will determine the keepers with the ability to reach for further shots while reflex attributes determine reaction times, so a keeper like Petr Cech of Chelsea FC will show be able to showcase world-class skills.

suggested Fifa 11 system requirements:

Dual Core 2.4 GHz, 1 GB RAM, graphic card 256 MB RAM (GeForce 8800 or better), Windows XP/Vista/7.

Need for speed hot pursuit - Pc Game Full Download



Need for speed hot pursuit - Pc Game Full Download

Need for Speed Hot Pursuit will transform online entertainment for this generation. Criterion Games is redefining the meaning of cops versus racers by providing players with the opportunity to play a full career as either a cop or a racer, advancing through the ranks by accruing bounty.

Players will experience stunning speeds, takedowns and getaways as they chase, battle, escape or bust their buddies.

The innovative Need for Speed Autolog is poised to re-think head-to-head social competition by changing how people connect, how they communicate and how they play games with each other. Through Autolog, Need for Speed Hot Pursuit dynamically tracks and shares performance and stats so your friends actually drive your gameplay experience. So, whether you’re online or offline, the connected experience is at the heart of Need for Speed Hot Pursuit.

Football Manager 2011 - Pc Game Full Download



Football Manager 2011 - Pc Game Full Download

Football Manager 2011 is a new live contract negotiation system, with a host of new contract clauses. Learn to deal with different types of agents as you try to secure your next big signing.

Re-vamped training system - including more basic training schedules and individual training focus where players can be in trained in 14 different skill areas. Plus, a new match preparation area, where you can get your team to concentrate on special focus areas, and train in specific tactics, in the lead up to a match.
Improved Interaction - new board request and backroom advice options as well as a new player interaction module allowing you to have private conversations with your players, including lots of options never seen before, taking interaction to a whole new level.

News subscription service - expanded to make the way that news and mail is distributed even more user friendly and immersive. Dozens of additional news items and a new module written to add more intelligence in the news items themselves.

Match View - play under the glare of the floodlights for the first time with night matches and over 100 new animations including player models, stadiums, goal celebrations and much, much more. Not forgetting improvements to what was already the best match simulation on the market.

Dynamic League Reputation - a new feature meaning as teams get stronger and perform better on a continental level, the league they play in will also get stronger, attracting more players to want to play in the league and a more accurate modelling of the changing face of world football.

Pentium IV 1.4 GHz, 512 MB RAM, graphic card 128 MB (GeForce 5900 Ultra or better), 2 GB HDD, Windows XP/Vista/7.

Download Torrent

Spider-Man Shattered Dimensions - Pc Game Full Download



Spider-Man Shattered Dimensions - Pc Game Full Download

Spider-Man Shattered Dimensions transports players to a variety of locations, from lush jungles and sand quarries to a futuristic NYC, and allows them to use unique gameplay styles for each Spider-Man, including stealth moves in Noir, gliding maneuvers in 2099, black-suited tendril attacks in Ultimate, and innovative web combat in Amazing.

Penned by acclaimed Marvel comic book writer Dan Slott, the story takes players on a mission to restore the magical energy of the Tablet of Order and Chaos, which has been shattered and scattered across parallel universes. Gamers are challenged to battle fan-favorite villains such as the lethal Kraven and a custom, never-before-seen Noir version of Hammerhead, in a quest to restore the fabric of reality.

Each of the actors voicing Spider-Man in the game has portrayed the web-slinger in previous Spider-Man animated television series. Neil Patrick Harris (Amazing Spider-Man) voiced the wall-crawler in "Spider-Man: The New Animated Series" in 2003; Josh Keaton (Ultimate Spider-Man) was the voice of Spider-Man in "The Spectacular Spider-Man" from 2008-2009; Dan Gilvezan (Spider-Man 2099) starred in "Spider-Man and His Amazing Friends" from 1981-1983; and Christopher Daniel Barnes (Spider-Man Noir) voiced the iconic Super Hero(TM) in "Spider-Man," the 1994 series.

Additionally, legendary Spider-Man co-creator and comic book icon Stan Lee will guide players through the storyline of Spider-Man: Shattered Dimensions as the game's narrator, and Emmy Award-winning composer Jim Dooley has created an original orchestral score for the game.

Prison Tycoon 3 Lockdown



Prison Tycoon 3 Lockdown



Prison Tycoon 3 Lockdown
Publisher: ValuSoft
Developer: Virtual Playground
Minimum System Requirements
OS: Windows 98/ME/2000/XP
Processor: Pentium 3 @ 1.4 GHz
Memory: 512 MB
Hard Drive: 800 MB Free
Video Memory: NVIDIA 5200/ATI Radeon 9000/Intel GMA 900
Sound Card: DirectX Compatible
DirectX: 9.0c
Keyboard & Mouse
CD/DVD Rom Drive

Call of duty 4 Modern Warfare



Call of duty 4 Modern Warfare

Return to today's war front with the second chapter in the Modern Warfare series. Modern Warfare 2 continues the gripping and heart-racing action as players face off against a new threat dedicated to bringing the world to the brink of collapse. Playing as as Sgt. Gary "Roach" Sanderson, your international squad of elite soldiers battle through harrowing combat scenarios that range from snowy mountaintops in Siberia to the crowded streets of Rio de Janiero, Brazil and beyond, facing a terrorist force hellbent on redefining the boundary lines of today's modern warfare. Players can face the threat alone or with other players in cooperative SpecOps mode. For even more intense combat, take up arms against online foes in enhanced deathmatch warfare on a host of Modern Warfare 2 maps.

* EPIC SINGLE-PLAYER CAMPAIGN -- A riveting story picks up immediately following the thrilling events from Call of Duty 4: Modern Warfare.
* SPECIAL OPS CO-OPERATIVE -- An entirely new gameplay mode which supports 2-player co-operative play via online or split screen that is unique from the single player story campaign. Special Ops pits players into a gauntlet of time-trial and objective-based missions. Missions include highlights from the single player campaign, fan favorites from Call of Duty 4: Modern Warfare and all new, exclusive missions. Rank-up as players unlock new Special Ops missions, each more difficult.
* MULTIPLAYER REINVENTED -- Modern Warfare 2 multiplayer delivers new capabilities, customization, gamestates and modes, including: Customizable Killstreaks, Accolades (post match reports) & evolved Create-a-Class.

Transformers.War.For.Cybertron-RELOADED



Transformers: War for Cybertron


Transformers
: War for Cybertron
challenges players to become the ultimate weapon as a Transformers character in the final, epic war that will determine the survival of their entire race. Armed with a diverse arsenal of lethal, high-tech weaponry and the ability to instantly convert from robot to vehicle at any time, players will engage in heart-pounding battles on land and in the air in this gripping, 3rd person action shooter set in the Transformers’ war-ravaged homeland. Complete with several multiplayer modes, Transformers: War for Cybertron allows gamers to play through story missions with their friends in drop in/drop out online co-op, and also create their own Transformers character for competitive head-to-head multiplayer modes, choosing among four distinct character classes, personalizing its look and selecting from a huge variety of weapons, skills and abilities

Release Name: Transformers.War.For.Cybertron-RELOADED
Size: 8.2 GB


MINIMUM SYSTEM REQUIREMENTS
PC Processor Type: Intel® Core™ 2 Duo E4300 processor, AMD Athlon™ 64 x2 Dual Core 4000 processor

PC Processor Speed: 2GHz
PC Operating System: Windows XP, Windows Vista, Windows 7
PC System Memory: 2GB Ram

PC Hard Drive Space: 9GB
PC Video: 256MB DirectX 9.0c-compatible NVIDIA GeForce 7900 GT or ATI Radeon X1900 video cards (excluding NVIDIA 8400 and Radeon HD2400, HD2600 and HD3450 video cards)
PC Sound Card: 16-bit DirectX 9.0c-compatible sound cards
PC Drive Type and Speed:

Resident evil afterlife hindi by TheAaax9



Resident evil afterlife hindi by TheAaax9

General

Complete name                    : resident evil afterlife.mp4

Genre                            :Action | Horror | Sci-Fi | Thriller

IMDB                             :http://www.imdb.com/title/tt1220634/

Language                         : Hindi

Format                           : MPEG-4

Format profile                   : 640x480

Codec ID                         : MSNV

File size                        : 987 MiB

Duration                         : 1h 25mn

Overall bit rate                 : 1 606 Kbps


Video

Format                           : AVC

Format/Info                      : Advanced Video Codec

Format profile                   : Baseline@L3.0

Format settings, CABAC           : No

Format settings, ReFrames        : 1 frame

Codec ID                         : avc1

Codec ID/Info                    : Advanced Video Coding

Duration                         : 1h 25mn

Bit rate mode                    : Variable

Bit rate                         : 1 500 Kbps

Width                            : 640 pixels

Height                           : 480 pixels

Display aspect ratio             : 4:3

Frame rate mode                  : Constant

Frame rate                       : 29.970 fps

Resolution                       : 24 bits

Colorimetry                      : 4:2:0

Scan type                        : Progressive

Bits/(Pixel*Frame)               : 0.163

Stream size                      : 921 MiB (93%)


Audio

Format                           : AAC

Language                         : Hindi

Format/Info                      : Advanced Audio Codec

Format version                   : Version 4

Format profile                   : LC

Format settings, SBR             : No

Codec ID                         : 40

Duration                         : 1h 25mn

Bit rate mode                    : Constant

Bit rate                         : 104 Kbps

Nominal bit rate                 : 128 Kbps

Channel(s)                       : 2 channels

Channel positions                : L R

Sampling rate                    : 48.0 KHz

Resolution                       : 16 bits

Stream size                      : 64.0 MiB (6%)

F.E.A.R 2-Project Origin



F.E.A.R 2-Project Origin

The sequel will continue the original game̢۪s spine-tingling supernatural
suspense story of an escalating paranormal crisis that threatens to destroy
a major American city. At the center of the calamity is the mysterious Alma,
whose rage against those who wronged her triggered a chain of events that
have spiraled completely out of control. Now that she has free reign, the
consequences will be unimaginable.

Minimum system requirements:

* CPU: P4 2.8GHz (3.2GHz Vista)/Athlon 64 3000+ (3200+ Vista)
* GPU: Fully DX9-compliant graphics card with 256MB (SM 2.0b).
NVidia 6800 or ATI X700.
* Memory: 1GB (1.5GB Vista)
* HDD: 12GB
* OS: Windows XP SP2/Vista SP1
* DirectX: 9.0c
* Sound: DX9.0c compliant
* Optical drive: DVD (boxed only)
* Internet: Broadband

Recommended system requirements:

* CPU: Core 2 Duo 2.2GHz processor family/Athlon 64 X2 4400+ (required
for MP host)
* GPU: Fully DX9-compliant graphics card with 512MB (SM 3.0). NVidia 8600
GTS or ATI HD 2900 XT.
* Memory: 1.5GB
* HDD: 12GB
* OS: Windows XP SP3/Vista SP1
* DirectX: 9.0c
* Sound: DX9.0c compliant
* Optical drive: DVD (boxed only)
* Internet: Broadband (768kbit/sec upstream required to host 16 players)

Although this game is technically a follow-up to F.E.A.R., the game will
not carry the F.E.A.R. franchise name due to a shift in publishers --
instead, it will feature a new name for its terror.

General Features

* Strategic environmental combat opportunities available to both you
and your enemies
* Slow time using your character̢۪s enhanced reflexes
* In your face close-quarter action in a variety of indoor and
outdoor environments
* Battle all-new enemies that employ advanced combat tactics
* Test your nerves and face your FEARS as you battle new characters
and unravel a terrifying mystery
* Utilize the world interaction enhancements to create instant
cover or remove obstacles
* Play with and against friends in multiplayer competition
* Enhanced graphics engine takes action horror to new heights through
enhanced visuals and effects
* Enemies behave realistically and use the environment against you
through vastly enhanced enemy Artificial Intelligence
* Maintains the authenticity of the Alma storyline and players will
know this is the only place to continue the saga

Downloaded any game from this site?

Follow US

Labels

Pc Games xbox360 Hollywood Movie Bollywood Movie download free download PC Software full direct fast server full version game Avatar The Game - RELOADED - Pc Game Full Download Hindi fast free download movies ps3 torrent - Bollywood Movie - Pc Game Full Download Alpha Protocol PC cheat computer hd nvidia review server unlimited (2010) 2 2010 256 mb Assasin's Creed-2 Assassins Creed: Brotherhood Band Baaja Baaraat Batman Arkham Asylum Battlefield Bad Company 2 Call of Duty: Black Ops - Xbox 360 Call of duty 4 Modern Warfare Darksiders F.E.A.R 2-Project Origin FIFA.11 - RELOADED - Pc Game Full Download Fallout: New Vegas Game of Death 2010 - Hollywood Movie HALO REACH James Bond 007: Blood Stone Just Cause 2-RELOADED Legend of the Guardians (2010) DVDRip XviD-MAX MAFiA 2 Metro 2033 Need For Speed: Hot Pursuit Need for speed hot pursuit - Pc Game Full Download No Problem PC NBA 2K11 Full Rip -TPTB PC_Tom.Clancy\'s.Splinter.Cell.Conviction.Full-Rip.-TPTB Prison Tycoon 3 Lockdown Resident evil afterlife hindi by TheAaax9 Rip S60v3 Section 8 Soon Spider-Man Shattered Dimensions - Pc Game Full Download Split Second: Velocity StarCraft II: Wings of Liberty TPTB Tangled movie Test Drive Unlimited [PAL] - XBOX 360 The Sims 3 Late Night-RELOADED Transformers: War for Cybertron Tron Evolution Two Worlds II Unstoppable 2010 [2010] [PC ~ Multi5] Borderlands ati bayonetta download bond dead rising 2 pc game dwonload ea earn online film football manager 2011 forex forex game load monopoly online radion rakta charitra ram wallpaper

partners link

Check PageRank Msn bot last visit powered by MyPagerank.Net Yahoo bot last visit powered by MyPagerank.Net Entertainment blogs Visit blogadda.com to discover Indian blogs Games Blogs Games blog Pc & Xbox360 Color-Games le-denicheur 4function sarkarinaukri Download Games building games downloaditfree Fun Games Mobster RPG Mafia RPG 4x4 Game Hot Rod Game Biker RPG Fallout RPG MOBILE DOWNLOAD
Twitter Delicious Facebook Digg Stumbleupon Favorites More

 
DISCLAIMER
nexfendownload- Freeware Games only provides those games link that are either freeware or a demo version or hosted by other public sites, this blog host no links. The information in respect of games are gathered from all over the Internet in efforts to put it in more informative way. But still anything effect your copyrights or any other issue you can contact at pilu.hot@hotmail.com