Legend of the Guardians (2010) DVDRip XviD- Hollywood Movie



Format                           : AVI
Format/Info                      : Audio Video Interleave
Format profile                   : OpenDML
File size                        : 1.23 GiB
Duration                         : 1h 36mn
Overall bit rate                 : 1 816 Kbps
Writing application              : VirtualDubMod 1.5.10.2 (build 2542/release)
Writing library                  : VirtualDubMod build 2542/release
Original source form             : MAX TORRENTZ
Copyright                        : SIGISMUNT

Video
ID                               : 0
Format                           : MPEG-4 Visual
Format profile                   : AdvancedSimple@L5
Format settings, BVOP            : Yes
Format settings, QPel            : No
Format settings, GMC             : No warppoints
Format settings, Matrix          : Custom
Codec ID                         : XVID
Codec ID/Hint                    : XviD
Duration                         : 1h 36mn
Bit rate                         : 1 619 Kbps
Width                            : 720 pixels
Height                           : 304 pixels
Display aspect ratio             : 2.35:1
Frame rate                       : 23.976 fps
Resolution                       : 24 bits
Colorimetry                      : 4:2:0
Scan type                        : Progressive
Bits/(Pixel*Frame)               : 0.308
Stream size                      : 1.09 GiB (89%)
Writing library                  : XviD 1.2.1 (UTC 2008-12-04)

Audio
ID                               : 1
Format                           : AC-3
Format/Info                      : Audio Coding 3
Codec ID                         : 2000
Duration                         : 1h 36mn
Bit rate mode                    : Constant
Bit rate                         : 192 Kbps
Channel(s)                       : 2 channels
Channel positions                : L R
Sampling rate                    : 48.0 KHz
Stream size                      : 133 MiB (11%)
Alignment                        : Aligned on interleaves
Interleave, duration             : 64 ms (1.53 video frames)
Interleave, preload duration     : 192 ms

1 comments:

parimal said...

Working on my Ipod also, Thanks Dude:) ☺♫

Post a Comment

Downloaded any game from this site?

Follow US

Labels

Pc Games xbox360 Hollywood Movie Bollywood Movie download free download PC Software full direct fast server full version game Avatar The Game - RELOADED - Pc Game Full Download Hindi fast free download movies ps3 torrent - Bollywood Movie - Pc Game Full Download Alpha Protocol PC cheat computer hd nvidia review server unlimited (2010) 2 2010 256 mb Assasin's Creed-2 Assassins Creed: Brotherhood Band Baaja Baaraat Batman Arkham Asylum Battlefield Bad Company 2 Call of Duty: Black Ops - Xbox 360 Call of duty 4 Modern Warfare Darksiders F.E.A.R 2-Project Origin FIFA.11 - RELOADED - Pc Game Full Download Fallout: New Vegas Game of Death 2010 - Hollywood Movie HALO REACH James Bond 007: Blood Stone Just Cause 2-RELOADED Legend of the Guardians (2010) DVDRip XviD-MAX MAFiA 2 Metro 2033 Need For Speed: Hot Pursuit Need for speed hot pursuit - Pc Game Full Download No Problem PC NBA 2K11 Full Rip -TPTB PC_Tom.Clancy\'s.Splinter.Cell.Conviction.Full-Rip.-TPTB Prison Tycoon 3 Lockdown Resident evil afterlife hindi by TheAaax9 Rip S60v3 Section 8 Soon Spider-Man Shattered Dimensions - Pc Game Full Download Split Second: Velocity StarCraft II: Wings of Liberty TPTB Tangled movie Test Drive Unlimited [PAL] - XBOX 360 The Sims 3 Late Night-RELOADED Transformers: War for Cybertron Tron Evolution Two Worlds II Unstoppable 2010 [2010] [PC ~ Multi5] Borderlands ati bayonetta download bond dead rising 2 pc game dwonload ea earn online film football manager 2011 forex forex game load monopoly online radion rakta charitra ram wallpaper

partners link

Check PageRank Msn bot last visit powered by MyPagerank.Net Yahoo bot last visit powered by MyPagerank.Net Entertainment blogs Visit blogadda.com to discover Indian blogs Games Blogs Games blog Pc & Xbox360 Color-Games le-denicheur 4function sarkarinaukri Download Games building games downloaditfree Fun Games Mobster RPG Mafia RPG 4x4 Game Hot Rod Game Biker RPG Fallout RPG MOBILE DOWNLOAD
Twitter Delicious Facebook Digg Stumbleupon Favorites More

 
DISCLAIMER
nexfendownload- Freeware Games only provides those games link that are either freeware or a demo version or hosted by other public sites, this blog host no links. The information in respect of games are gathered from all over the Internet in efforts to put it in more informative way. But still anything effect your copyrights or any other issue you can contact at pilu.hot@hotmail.com