Resident evil afterlife hindi by TheAaax9



Resident evil afterlife hindi by TheAaax9

General

Complete name                    : resident evil afterlife.mp4

Genre                            :Action | Horror | Sci-Fi | Thriller

IMDB                             :http://www.imdb.com/title/tt1220634/

Language                         : Hindi

Format                           : MPEG-4

Format profile                   : 640x480

Codec ID                         : MSNV

File size                        : 987 MiB

Duration                         : 1h 25mn

Overall bit rate                 : 1 606 Kbps


Video

Format                           : AVC

Format/Info                      : Advanced Video Codec

Format profile                   : Baseline@L3.0

Format settings, CABAC           : No

Format settings, ReFrames        : 1 frame

Codec ID                         : avc1

Codec ID/Info                    : Advanced Video Coding

Duration                         : 1h 25mn

Bit rate mode                    : Variable

Bit rate                         : 1 500 Kbps

Width                            : 640 pixels

Height                           : 480 pixels

Display aspect ratio             : 4:3

Frame rate mode                  : Constant

Frame rate                       : 29.970 fps

Resolution                       : 24 bits

Colorimetry                      : 4:2:0

Scan type                        : Progressive

Bits/(Pixel*Frame)               : 0.163

Stream size                      : 921 MiB (93%)


Audio

Format                           : AAC

Language                         : Hindi

Format/Info                      : Advanced Audio Codec

Format version                   : Version 4

Format profile                   : LC

Format settings, SBR             : No

Codec ID                         : 40

Duration                         : 1h 25mn

Bit rate mode                    : Constant

Bit rate                         : 104 Kbps

Nominal bit rate                 : 128 Kbps

Channel(s)                       : 2 channels

Channel positions                : L R

Sampling rate                    : 48.0 KHz

Resolution                       : 16 bits

Stream size                      : 64.0 MiB (6%)

1 comments:

Resident Evil said...

Thanks for this version of resident Evil buddy.
resident evil pc game, resident evil game, resident evil download, resident evil 5 gold edition

Post a Comment

Downloaded any game from this site?

Follow US

Labels

Pc Games xbox360 Hollywood Movie Bollywood Movie download free download PC Software full direct fast server full version game Avatar The Game - RELOADED - Pc Game Full Download Hindi fast free download movies ps3 torrent - Bollywood Movie - Pc Game Full Download Alpha Protocol PC cheat computer hd nvidia review server unlimited (2010) 2 2010 256 mb Assasin's Creed-2 Assassins Creed: Brotherhood Band Baaja Baaraat Batman Arkham Asylum Battlefield Bad Company 2 Call of Duty: Black Ops - Xbox 360 Call of duty 4 Modern Warfare Darksiders F.E.A.R 2-Project Origin FIFA.11 - RELOADED - Pc Game Full Download Fallout: New Vegas Game of Death 2010 - Hollywood Movie HALO REACH James Bond 007: Blood Stone Just Cause 2-RELOADED Legend of the Guardians (2010) DVDRip XviD-MAX MAFiA 2 Metro 2033 Need For Speed: Hot Pursuit Need for speed hot pursuit - Pc Game Full Download No Problem PC NBA 2K11 Full Rip -TPTB PC_Tom.Clancy\'s.Splinter.Cell.Conviction.Full-Rip.-TPTB Prison Tycoon 3 Lockdown Resident evil afterlife hindi by TheAaax9 Rip S60v3 Section 8 Soon Spider-Man Shattered Dimensions - Pc Game Full Download Split Second: Velocity StarCraft II: Wings of Liberty TPTB Tangled movie Test Drive Unlimited [PAL] - XBOX 360 The Sims 3 Late Night-RELOADED Transformers: War for Cybertron Tron Evolution Two Worlds II Unstoppable 2010 [2010] [PC ~ Multi5] Borderlands ati bayonetta download bond dead rising 2 pc game dwonload ea earn online film football manager 2011 forex forex game load monopoly online radion rakta charitra ram wallpaper

partners link

Check PageRank Msn bot last visit powered by MyPagerank.Net Yahoo bot last visit powered by MyPagerank.Net Entertainment blogs Visit blogadda.com to discover Indian blogs Games Blogs Games blog Pc & Xbox360 Color-Games le-denicheur 4function sarkarinaukri Download Games building games downloaditfree Fun Games Mobster RPG Mafia RPG 4x4 Game Hot Rod Game Biker RPG Fallout RPG MOBILE DOWNLOAD
Twitter Delicious Facebook Digg Stumbleupon Favorites More

 
DISCLAIMER
nexfendownload- Freeware Games only provides those games link that are either freeware or a demo version or hosted by other public sites, this blog host no links. The information in respect of games are gathered from all over the Internet in efforts to put it in more informative way. But still anything effect your copyrights or any other issue you can contact at pilu.hot@hotmail.com