Inception (2010) DVDRip - hollywood movie



Inception (2010) DVDRip

Inception (2010) DVDRip XviD-MAX
Format                           : AVI
Format/Info                      : Audio Video Interleave
Format profile                   : OpenDML
File size                        : 1.43 GiB
Duration                         : 2h 28mn
Overall bit rate                 : 1 381 Kbps
Writing application              : AVI-Mux GUI 1.17.8.3, Feb 16 201019:42:50

Video
ID                               : 0
Format                           : MPEG-4 Visual
Format profile                   : AdvancedSimple@L5
Format settings, BVOP            : Yes
Format settings, QPel            : No
Format settings, GMC             : No warppoints
Format settings, Matrix          : Default (H.263)
Muxing mode                      : Packed bitstream
Codec ID                         : XVID
Codec ID/Hint                    : XviD
Duration                         : 2h 28mn
Bit rate                         : 1 185 Kbps
Width                            : 640 pixels
Height                           : 272 pixels
Display aspect ratio             : 2.35:1
Frame rate                       : 23.976 fps
Resolution                       : 24 bits
Colorimetry                      : 4:2:0
Scan type                        : Progressive
Bits/(Pixel*Frame)               : 0.284
Stream size                      : 1.23 GiB (86%)
Writing library                  : XviD 57

Audio
ID                               : 1
Format                           : MPEG Audio
Format version                   : Version 1
Format profile                   : Layer 3
Codec ID                         : 55
Codec ID/Hint                    : MP3
Duration                         : 2h 28mn
Bit rate mode                    : Constant
Bit rate                         : 192 Kbps
Channel(s)                       : 2 channels
Sampling rate                    : 48.0 KHz
Resolution                       : 16 bits
Stream size                      : 203 MiB (14%)
Alignment                        : Aligned on interleaves
Interleave, duration             : 628 ms (15.07 video frames)
Interleave, preload duration     : 216 ms
Title                            : inception
Writing library                  : LAME3.98.2

Sources: Original DVD+MP3 audio (perfect sync with additional 100% volume) sample included,enjoy

1 comments:

Anonymous said...

nice

Post a Comment

Downloaded any game from this site?

Follow US

Labels

Pc Games xbox360 Hollywood Movie Bollywood Movie download free download PC Software full direct fast server full version game Avatar The Game - RELOADED - Pc Game Full Download Hindi fast free download movies ps3 torrent - Bollywood Movie - Pc Game Full Download Alpha Protocol PC cheat computer hd nvidia review server unlimited (2010) 2 2010 256 mb Assasin's Creed-2 Assassins Creed: Brotherhood Band Baaja Baaraat Batman Arkham Asylum Battlefield Bad Company 2 Call of Duty: Black Ops - Xbox 360 Call of duty 4 Modern Warfare Darksiders F.E.A.R 2-Project Origin FIFA.11 - RELOADED - Pc Game Full Download Fallout: New Vegas Game of Death 2010 - Hollywood Movie HALO REACH James Bond 007: Blood Stone Just Cause 2-RELOADED Legend of the Guardians (2010) DVDRip XviD-MAX MAFiA 2 Metro 2033 Need For Speed: Hot Pursuit Need for speed hot pursuit - Pc Game Full Download No Problem PC NBA 2K11 Full Rip -TPTB PC_Tom.Clancy\'s.Splinter.Cell.Conviction.Full-Rip.-TPTB Prison Tycoon 3 Lockdown Resident evil afterlife hindi by TheAaax9 Rip S60v3 Section 8 Soon Spider-Man Shattered Dimensions - Pc Game Full Download Split Second: Velocity StarCraft II: Wings of Liberty TPTB Tangled movie Test Drive Unlimited [PAL] - XBOX 360 The Sims 3 Late Night-RELOADED Transformers: War for Cybertron Tron Evolution Two Worlds II Unstoppable 2010 [2010] [PC ~ Multi5] Borderlands ati bayonetta download bond dead rising 2 pc game dwonload ea earn online film football manager 2011 forex forex game load monopoly online radion rakta charitra ram wallpaper

partners link

Check PageRank Msn bot last visit powered by MyPagerank.Net Yahoo bot last visit powered by MyPagerank.Net Entertainment blogs Visit blogadda.com to discover Indian blogs Games Blogs Games blog Pc & Xbox360 Color-Games le-denicheur 4function sarkarinaukri Download Games building games downloaditfree Fun Games Mobster RPG Mafia RPG 4x4 Game Hot Rod Game Biker RPG Fallout RPG MOBILE DOWNLOAD
Twitter Delicious Facebook Digg Stumbleupon Favorites More

 
DISCLAIMER
nexfendownload- Freeware Games only provides those games link that are either freeware or a demo version or hosted by other public sites, this blog host no links. The information in respect of games are gathered from all over the Internet in efforts to put it in more informative way. But still anything effect your copyrights or any other issue you can contact at pilu.hot@hotmail.com